迅雷种子论坛

 找回密码
 立即注册(享受大片)

QQ登录

只需一步,快速开始

查看: 1369|回复: 1

The.Veil.2017.1080p.WEBRip.DD5.1.x264-FGT 4.94GB

[复制链接] [提交至百度]

该用户从未签到

2321

主题

2328

帖子

7454

种币

超级版主

Rank: 8Rank: 8

积分
9863
发表于 2017-5-20 08:35:50 | 显示全部楼层 |阅读模式


◎译  名 
◎片  名 The Veil
◎年  代 2017
◎产  地 美国
◎类  别 动作
◎语  言 英语
◎IMDb评分  N/A
◎IMDb链接  http://www.imdb.com/title/tt3343868/
◎导  演 Brent Ryan Green
◎主  演 赛琳达·斯万 Serinda Swan
      威廉·莫斯里 William Moseley
      托马斯·简 Thomas Jane
      威廉·莱维 William Levy
      尼克·塔拉贝 Nick Tarabay
      比利·布莱尔 Billy Blair
      布雷特·德尔布罗诺 Brett DelBuono
      Torrey Vogel

◎简  介

  Set in a war-torn land where tribal factions live in fear of annihilation, the film tells the story of a deadly warrior leading a destructive war campaign. When he is betrayed by his own and left for dead, he is healed by a mysterious princess and taken in by a hidden tribe that believes he was chosen to wage a final battle.

Video
ID                                       : 1
Format                                   : AVC
Format/Info                              : Advanced Video Codec
Format profile                           : High@L4.1
Format settings, CABAC                   : Yes
Format settings, ReFrames                : 12 frames
Codec ID                                 : V_MPEG4/ISO/AVC
Duration                                 : 1h 25mn
Bit rate                                 : 3 293 Kbps
Width                                    : 1 280 pixels
Height                                   : 532 pixels
Display aspect ratio                     : 2.40:1
Frame rate mode                          : Constant
Frame rate                               : 23.976 (24000/1001) fps
Color space                              : YUV
Chroma subsampling                       : 4:2:0
Bit depth                                : 8 bits
Scan type                                : Progressive
Bits/(Pixel*Frame)                       : 0.202
Stream size                              : 1.97 GiB (90%)
Writing library                          : x264 core 148 r2744 b97ae06
Encoding settings                        : cabac=1 / ref=12 / deblock=1:-3:-3 / analyse=0x3:0x133 / me=tesa / subme=10 / psy=1 / psy_rd=1.00:0.15 / mixed_ref=1 / me_range=24 / chroma_me=1 / trellis=2 / 8x8dct=1 / cqm=0 / deadzone=21,11 / fast_pskip=0 / chroma_qp_offset=-3 / threads=12 / lookahead_threads=3 / sliced_threads=0 / nr=0 / decimate=1 / interlaced=0 / bluray_compat=0 / constrained_intra=0 / bframes=16 / b_pyramid=2 / b_adapt=2 / b_bias=0 / direct=3 / weightb=1 / open_gop=0 / weightp=2 / keyint=240 / keyint_min=23 / scenecut=40 / intra_refresh=0 / rc_lookahead=60 / rc=crf / mbtree=1 / crf=18.0 / qcomp=0.60 / qpmin=0 / qpmax=69 / qpstep=4 / ip_ratio=1.40 / aq=3:0.70
Default                                  : Yes
Forced                                   : No

Audio
ID                                       : 2
Format                                   : AC-3
Format/Info                              : Audio Coding 3
Mode extension                           : CM (complete main)
Format settings, Endianness              : Big
Codec ID                                 : A_AC3
Duration                                 : 1h 25mn
Bit rate mode                            : Constant
Bit rate                                 : 384 Kbps
Channel(s)                               : 6 channels
Channel positions                        : Front: L C R, Side: L R, LFE
Sampling rate                            : 48.0 KHz
Frame rate                               : 31.250 fps (1536 spf)
Compression mode                         : Lossy
Stream size                              : 235 MiB (10%)
Language                                 : English
Default                                  : Yes
Forced                                   : Yes









[XunleiCun]_-The.Veil.2017.1080p.WEBRip.DD5.1.x264-FGT[迅雷种子论坛].torrent (99.36 KB, 下载次数: 3)
温馨提示:
本网站所有资源来自网络,仅供学习和交流,若侵犯了您的权益,请发邮件至 bbsxunlei1com@foxmail.com,立即清除相关链接。
1、在论坛里发表的文章仅代表作者本人的观点,与本网站立场无关。
2、论坛的所有内容都不保证其准确性,有效性,时间性。阅读本站内容因误导等因素而造成的损失本站不承担连带责任。
3、本站任何资源仅供学习参考,请在下载后24小时以内删除相关内容,否则后或自负。
4、若因线路及非本站所能控制范围的故障导致暂停服务期间造成的一切不便与损失,论坛不负任何责任。
5、注册会员通过任何手段和方法针对论坛进行破坏,我们有权对其行为作出处理。并保留进一步追究其责任的权利。
*滑动验证:

本版积分规则


Archiver|手机版|小黑屋|迅雷种子论坛 ( 皖ICP备17009963号-1|网站地图
本网站所有资源来自网络,仅供学习和交流,如无意中侵犯了您的权益,请发邮件至 bbsxunlei1com@foxmail.com,立即清除相关链接.

GMT+8, 2017-8-22 05:42 , Processed in 0.218917 second(s), 50 queries , Gzip On.

Powered by Discuz! X3.2

© 2001-2013 Comsenz Inc.

快速回复 返回顶部 返回列表