迅雷种子论坛

 找回密码
 立即注册(享受大片)

QQ登录

只需一步,快速开始

查看: 2712|回复: 1

星河战队:火星叛国者 2017.1080p.BluRay.x264.DTS-HDC 12GB

[复制链接] [提交至百度]

该用户从未签到

4259

主题

4289

帖子

1万

种币

超级版主

Rank: 8Rank: 8

积分
21422
发表于 2017-9-12 12:47:16 | 显示全部楼层 |阅读模式


译  名 星河战队:火星叛国者/星河战队:火星的叛徒
片  名 Starship Troopers: Traitor of Mars
年  代 2017
产  地 美国
类  别 动作/科幻/动画
语  言 英语
上映日期 2017-08-21(美国)
IMDb评分  5.5/10 from 1,343 users
片  长 100分钟
导  演 荒牧伸志 Shinji Aramaki / 松本松子 Masaru Matsumoto
主  演 卡斯帕·凡·迪恩 Casper Van Dien
      迪娜·迈耶 Dina Meyer
      德雷·戴维斯 DeRay Davis
      露西·克里斯蒂安 Luci Christian


简  介


  故事讲述约翰尼·里科(卡斯帕·凡·迪恩配音)降级发配到火星偏僻空间站,他本和士兵安稳培训,不料众人被一大批外星昆虫包围,战争一触即发。


Video
ID                                       : 1
Format                                   : AVC
Format/Info                              : Advanced Video Codec
Format profile                           : HighL4.1
Format settings, CABAC                   : Yes
Format settings, ReFrames                : 4 frames
Codec ID                                 : V_MPEG4/ISO/AVC
Duration                                 : 1 h 27 min
Bit rate                                 : 18.8 Mb/s
Width                                    : 1 920 pixels
Height                                   : 1 080 pixels
Display aspect ratio                     : 16:9
Frame rate mode                          : Constant
Frame rate                               : 23.976 (24000/1001) FPS
Color space                              : YUV
Chroma subsampling                       : 4:2:0
Bit depth                                : 8 bits
Scan type                                : Progressive
Bits/(Pixel*Frame)                       : 0.378
Stream size                              : 11.3 GiB (91%)
Writing library                          : x264 core 142 r2431+42 c69a006 tMod [8-bit@all X86_64]
Encoding settings                        : cabac=1 / ref=4 / deblock=1:-1:-1 / analyse=0x3:0x133 / me=umh / subme=11 / psy=1 / fade_compensate=0.00 / psy_rd=0.80:0.00 / mixed_ref=1 / me_range=48 / chroma_me=1 / trellis=2 / 8x8dct=1 / cqm=0 / deadzone=21,11 / fast_pskip=0 / chroma_qp_offset=-2 / threads=48 / lookahead_threads=4 / sliced_threads=0 / nr=0 / decimate=0 / interlaced=0 / bluray_compat=0 / constrained_intra=0 / fgo=0 / bframes=8 / b_pyramid=2 / b_adapt=2 / b_bias=0 / direct=3 / weightb=1 / open_gop=0 / weightp=2 / keyint=240 / keyint_min=24 / scenecut=40 / intra_refresh=0 / rc_lookahead=40 / rc=2pass / mbtree=0 / bitrate=18800 / ratetol=1.0 / qcomp=0.70 / qpmin=0:0:0 / qpmax=69:69:69 / qpstep=4 / cplxblur=20.0 / qblur=0.5 / vbv_maxrate=50000 / vbv_bufsize=45000 / nal_hrd=none / filler=0 / ip_ratio=1.10 / pb_ratio=1.15 / aq=3:0.80 / aq-sensitivity=10.00 / aq-factor=1.00:1.00:1.00 / aq2=0 / aq3=0
Language                                 : English
Default                                  : Yes
Forced                                   : No

Audio
ID                                       : 2
Format                                   : DTS
Format/Info                              : Digital Theater Systems
Mode                                     : 16
Format settings, Endianness              : Big
Codec ID                                 : A_DTS
Duration                                 : 1 h 27 min
Bit rate mode                            : Constant
Bit rate                                 : 1 509 kb/s
Channel(s)                               : 6 channels
Channel positions                        : Front: L C R, Side: L R, LFE
Sampling rate                            : 48.0 kHz
Frame rate                               : 93.750 FPS (512 spf)
Bit depth                                : 16 bits
Compression mode                         : Lossy
Stream size                              : 947 MiB (7%)
Language                                 : English
Default                                  : Yes
Forced                                   : No

Text
ID                                       : 3
Format                                   : UTF-8
Codec ID                                 : S_TEXT/UTF8
Codec ID/Info                            : UTF-8 Plain Text
Language                                 : English
Default                                  : Yes
Forced                                   : No

Menu
00:00:00.000                             : en:Chapter 1
00:06:52.787                             : en:Chapter 2
00:11:49.167                             : en:Chapter 3
00:15:55.830                             : en:Chapter 4
00:22:11.080                             : en:Chapter 5
00:28:16.278                             : en:Chapter 6
00:34:40.120                             : en:Chapter 7
00:38:02.030                             : en:Chapter 8
00:41:06.464                             : en:Chapter 9
00:51:04.478                             : en:Chapter 10
00:56:53.243                             : en:Chapter 11
01:02:22.280                             : en:Chapter 12
01:06:19.934                             : en:Chapter 13
01:13:16.100                             : en:Chapter 14
01:18:19.987                             : en:Chapter 15
01:22:40.873                             : en:Chapter 16


















                                                                                                                                                                                                        

            
[XunleiCun]_-Starship.Troopers.Traitor.of.Mars.2017.1080p.BluRay.x264.DTS-HDC[bt天堂 www.xunl.torrent (62.83 KB, 下载次数: 478)
温馨提示:
本网站所有资源来自网络,仅供学习和交流,若侵犯了您的权益,请发邮件至 bbsxunlei1com@foxmail.com,立即清除相关链接。
1、在论坛里发表的文章仅代表作者本人的观点,与本网站立场无关。
2、论坛的所有内容都不保证其准确性,有效性,时间性。阅读本站内容因误导等因素而造成的损失本站不承担连带责任。
3、本站任何资源仅供学习参考,请在下载后24小时以内删除相关内容,否则后或自负。
4、若因线路及非本站所能控制范围的故障导致暂停服务期间造成的一切不便与损失,论坛不负任何责任。
5、注册会员通过任何手段和方法针对论坛进行破坏,我们有权对其行为作出处理。并保留进一步追究其责任的权利。

签到天数: 153 天

[LV.7]货车司机III

1

主题

929

帖子

229

种币

资深司机

Rank: 6Rank: 6

积分
1233
发表于 2017-9-13 13:40:37 | 显示全部楼层
这个资源我找了好多天,终于在迅雷种子论坛找到了,高兴ing……
回复 支持 反对

使用道具 举报

*滑动验证:

本版积分规则


Archiver|手机版|小黑屋|迅雷种子论坛 ( 皖ICP备17009963号-1|网站地图
本网站所有资源来自网络,仅供学习和交流,如无意中侵犯了您的权益,请发邮件至 bbsxunlei1com@foxmail.com,立即清除相关链接.

GMT+8, 2017-9-22 16:01 , Processed in 0.234707 second(s), 45 queries , Gzip On.

Powered by Discuz! X3.2

© 2001-2013 Comsenz Inc.

快速回复 返回顶部 返回列表