迅雷种子论坛

 找回密码
 立即注册(享受大片)

QQ登录

只需一步,快速开始

查看: 1568|回复: 2

相棒 剧场版4[内封中字]Partners.The.Movie.IV.2017.720p.BluRay.x264-WiKi 5G

[复制链接] [提交至百度]

该用户从未签到

2784

主题

2791

帖子

9189

种币

超级版主

Rank: 8Rank: 8

积分
12086
发表于 2017-9-13 12:02:14 | 显示全部楼层 |阅读模式


译  名 相棒剧场版4
片  名 相棒 -剧场版IV-
年  代 2017
产  地 日本
类  别 剧情/悬疑
语  言 日语
上映日期 2017-02-11(日本)
IMDb评分  7.3/10 from 16 users
片  长 120分钟
导  演 桥本一 Hajime Hashimoto
主  演 北村一辉 Kazuki Kitamura
      仲间由纪惠 Yukie Nakama
      鹿贺丈史 Takeshi Kaga
      反町隆史 Takashi Sorimachi
      丹特·喀瓦 Dante Carver
      水谷丰 Yutaka Mizutani
      及川光博 Mitsuhiro Oikawa
      石坂浩二 K?ji Ishizaka
      山口麻友 Mayu Yamaguchi


简  介


  七年前,日本驻英领事馆发生了一起致命性的中毒事件,而唯一的幸存者也被国际犯罪组织劫走。出于政治原因,日本政府决定将此事隐瞒了下来。 七年后,前国际犯罪情报事务局理事马克·刘来到日本追查犯罪组织头目渡鸦的踪迹。东京警视厅派出特别干员杉下右京及冠城亘前往协助。然而,警方的第一个线人很快就被一个神秘的黑衣男子杀害。不久后犯罪组织入侵了外交部的官方网,并放出一段录像,在录像中的正是七年前失踪的幸存者,鹭泽瑛里佳。组织向日本政府索要9亿日元,并扬言如果不服从要求,数百万人将会见证日本的毁灭……


Video
ID                                       : 1
Format                                   : AVC
Format/Info                              : Advanced Video Codec
Format profile                           : HighL4.1
Format settings, CABAC                   : Yes
Format settings, ReFrames                : 9 frames
Codec ID                                 : V_MPEG4/ISO/AVC
Duration                                 : 2 h 0 min
Bit rate                                 : 5 310 kb/s
Width                                    : 1 280 pixels
Height                                   : 692 pixels
Display aspect ratio                     : 1.85:1
Frame rate mode                          : Constant
Frame rate                               : 23.976 (24000/1001) FPS
Color space                              : YUV
Chroma subsampling                       : 4:2:0
Bit depth                                : 8 bits
Scan type                                : Progressive
Bits/(Pixel*Frame)                       : 0.250
Stream size                              : 4.45 GiB (89%)
Writing library                          : x264 core 129 r2245+704+36 8e61944 tMod+MixAQ [8-bit@4:2:0 X86_64]
Encoding settings                        : cabac=1 / ref=9 / deblock=1:-3:-3 / analyse=0x3:0x133 / me=umh / subme=11 / psy=1 / fade_compensate=0.00 / psy_rd=1.05:0.10 / mixed_ref=1 / me_range=32 / chroma_me=1 / trellis=2 / 8x8dct=1 / cqm=0 / deadzone=21,11 / fast_pskip=0 / chroma_qp_offset=-3 / threads=18 / lookahead_threads=3 / sliced_threads=0 / nr=0 / decimate=0 / interlaced=0 / bluray_compat=0 / constrained_intra=0 / fgo=0 / bframes=10 / b_pyramid=2 / b_adapt=2 / b_bias=0 / direct=3 / weightb=1 / open_gop=0 / weightp=2 / keyint=250 / keyint_min=23 / scenecut=40 / intra_refresh=0 / rc=2pass / mbtree=0 / bitrate=5310 / ratetol=1.0 / qcomp=0.70 / qpmin=0 / qpmax=69 / qpstep=4 / cplxblur=20.0 / qblur=0.5 / ip_ratio=1.40 / pb_ratio=1.30 / aq=1 / aq-strength=0.90 / aq-sensitivity=10.00 / aq-ifactor=1.00 / aq-pfactor=1.00 / aq-bfactor=1.00 / aq2=0
Language                                 : Japanese
Default                                  : Yes
Forced                                   : No

Audio
ID                                       : 2
Format                                   : AC-3
Format/Info                              : Audio Coding 3
Format settings, Endianness              : Big
Codec ID                                 : A_AC3
Duration                                 : 2 h 0 min
Bit rate mode                            : Constant
Bit rate                                 : 640 kb/s
Channel(s)                               : 6 channels
Channel positions                        : Front: L C R, Side: L R, LFE
Sampling rate                            : 48.0 kHz
Frame rate                               : 31.250 FPS (1536 spf)
Bit depth                                : 16 bits
Compression mode                         : Lossy
Stream size                              : 550 MiB (11%)
Language                                 : Japanese
Service kind                             : Complete Main
Default                                  : Yes
Forced                                   : No

Text
ID                                       : 3
Format                                   : ASS
Codec ID                                 : S_TEXT/ASS
Codec ID/Info                            : Advanced Sub Station Alpha
Duration                                 : 1 h 56 min
Bit rate                                 : 89 b/s
Count of elements                        : 1414
Compression mode                         : Lossless
Stream size                              : 76.1 KiB (0%)
Language                                 : Chinese
Default                                  : Yes
Forced                                   : No

Menu
00:00:00.000                             : en:00:00:00.000
00:09:18.599                             : en:00:09:18.599
00:18:26.563                             : en:00:18:26.563
00:27:47.332                             : en:00:27:47.332
00:44:31.418                             : en:00:44:31.418
00:52:54.004                             : en:00:52:54.004
01:03:43.694                             : en:01:03:43.694
01:14:27.337                             : en:01:14:27.337
01:19:34.186                             : en:01:19:34.186
01:33:02.034                             : en:01:33:02.034
01:43:17.816                             : en:01:43:17.816
01:54:57.724                             : en:01:54:57.724















                                                                                                                                                                                                        

                            [XunleiCun]_-Partners.The.Movie.IV.2017.720p.BluRay.x264-WiKi[bt天堂 www.xunleicun.com][迅雷.torrent (100.44 KB, 下载次数: 6)
温馨提示:
本网站所有资源来自网络,仅供学习和交流,若侵犯了您的权益,请发邮件至 bbsxunlei1com@foxmail.com,立即清除相关链接。
1、在论坛里发表的文章仅代表作者本人的观点,与本网站立场无关。
2、论坛的所有内容都不保证其准确性,有效性,时间性。阅读本站内容因误导等因素而造成的损失本站不承担连带责任。
3、本站任何资源仅供学习参考,请在下载后24小时以内删除相关内容,否则后或自负。
4、若因线路及非本站所能控制范围的故障导致暂停服务期间造成的一切不便与损失,论坛不负任何责任。
5、注册会员通过任何手段和方法针对论坛进行破坏,我们有权对其行为作出处理。并保留进一步追究其责任的权利。

签到天数: 277 天

[LV.8]公交司机I

0

主题

490

帖子

973

种币

资深司机

Rank: 6Rank: 6

积分
1516
发表于 2017-9-14 07:03:30 | 显示全部楼层
桥本一 Hajime Hashimoto
回复 支持 反对

使用道具 举报

签到天数: 74 天

[LV.6]货车司机II

0

主题

794

帖子

187

种币

资深司机

Rank: 6Rank: 6

积分
1034
发表于 2017-9-14 09:41:11 | 显示全部楼层
七年前,日本驻英领事馆发生了一起致命性的中毒事件,而唯一的幸存者也被国际犯罪组织劫走。出于政治原因,日本政府决定将此事隐瞒了下来。
回复 支持 反对

使用道具 举报

*滑动验证:

本版积分规则


Archiver|手机版|小黑屋|迅雷种子论坛 ( 皖ICP备17009963号-1|网站地图
本网站所有资源来自网络,仅供学习和交流,如无意中侵犯了您的权益,请发邮件至 bbsxunlei1com@foxmail.com,立即清除相关链接.

GMT+8, 2017-9-22 15:49 , Processed in 0.237637 second(s), 45 queries , Gzip On.

Powered by Discuz! X3.2

© 2001-2013 Comsenz Inc.

快速回复 返回顶部 返回列表