迅雷种子论坛

 找回密码
 立即注册(享受大片)

QQ登录

只需一步,快速开始

查看: 1689|回复: 0

深海逃生/深海鲨机 47.Meters.Down.2017.720p.BluRay.x264.DTS-HDC 4.5GB

[复制链接] [提交至百度]

该用户从未签到

2784

主题

2791

帖子

9189

种币

超级版主

Rank: 8Rank: 8

积分
12086
发表于 7 天前 | 显示全部楼层 |阅读模式


译  名 深海逃生/深海鲨机(台)/鲨海47米(港)
片  名 47 Meters Down
年  代 2016
产  地 英国/美国/多米尼加
类  别 惊悚/恐怖
语  言 英语
上映日期 2016-10-20(希腊)/2017-06-16(美国)/2017-07-28(英国)
片  长 89分钟
导  演 约翰内斯·罗伯茨 Johannes Roberts
主  演 曼迪·摩尔 Mandy Moore
      克莱尔·霍尔特 Claire Holt
      克里斯·J.约翰逊 Chris J. Johnson
      雅尼·吉尔曼 Yani Gellman
      圣地亚哥·瑟甘拉 Santiago Segura
      马修·莫迪恩 Matthew Modine


简  介


  一对姐妹正在墨西哥海岸度假。她们在潜水时被海底一个水下鲨鱼观察笼困住。由于所存氧气不多,她们只有一个小时的时间逃脱牢笼回到水面


Video
ID                                       : 1
Format                                   : AVC
Format/Info                              : Advanced Video Codec
Format profile                           : HighL4.1
Format settings, CABAC                   : Yes
Format settings, ReFrames                : 12 frames
Codec ID                                 : V_MPEG4/ISO/AVC
Duration                                 : 1 h 29 min
Bit rate                                 : 5 800 kb/s
Width                                    : 1 280 pixels
Height                                   : 536 pixels
Display aspect ratio                     : 2.40:1
Frame rate mode                          : Constant
Frame rate                               : 23.976 (24000/1001) FPS
Color space                              : YUV
Chroma subsampling                       : 4:2:0
Bit depth                                : 8 bits
Scan type                                : Progressive
Bits/(Pixel*Frame)                       : 0.353
Stream size                              : 3.49 GiB (77%)
Title                                    : 47.Meters.Down.2017.720p.BluRay.x264.DTS-HDC
Writing library                          : x264 core 148 r2744kMod b97ae06
Encoding settings                        : cabac=1 / ref=12 / deblock=1:-3:-3 / analyse=0x3:0x133 / me=umh / subme=11 / psy=1 / fade_compensate=0.00 / psy_rd=1.05:0.00 / mixed_ref=1 / me_range=48 / chroma_me=1 / trellis=2 / 8x8dct=1 / cqm=0 / deadzone=21,11 / fast_pskip=0 / chroma_qp_offset=-2 / threads=12 / lookahead_threads=2 / sliced_threads=0 / nr=0 / decimate=0 / interlaced=0 / bluray_compat=0 / constrained_intra=0 / bframes=8 / b_pyramid=2 / b_adapt=2 / b_bias=0 / direct=3 / weightb=1 / open_gop=0 / weightp=2 / keyint=240 / keyint_min=2 / scenecut=40 / intra_refresh=0 / rc_lookahead=0 / rc=2pass / mbtree=0 / bitrate=5800 / ratetol=1.0 / qcomp=0.70 / qpmin=0 / qpmax=69 / qpstep=4 / cplxblur=20.0 / qblur=0.5 / vbv_maxrate=50000 / vbv_bufsize=30000 / nal_hrd=none / filler=0 / ip_ratio=1.30 / pb_ratio=1.20 / aq=3:0.80
Default                                  : Yes
Forced                                   : No

Audio
ID                                       : 2
Format                                   : DTS
Format/Info                              : Digital Theater Systems
Mode                                     : 16
Format settings, Endianness              : Big
Codec ID                                 : A_DTS
Duration                                 : 1 h 29 min
Bit rate mode                            : Constant
Bit rate                                 : 1 509 kb/s
Channel(s)                               : 6 channels
Channel positions                        : Front: L C R, Side: L R, LFE
Sampling rate                            : 48.0 kHz
Frame rate                               : 93.750 FPS (512 spf)
Bit depth                                : 24 bits
Compression mode                         : Lossy
Stream size                              : 964 MiB (21%)
Title                                    : 47.Meters.Down.2017.720p.BluRay.x264.DTS-HDC
Language                                 : English
Default                                  : Yes
Forced                                   : No

Text
ID                                       : 3
Format                                   : UTF-8
Codec ID                                 : S_TEXT/UTF8
Codec ID/Info                            : UTF-8 Plain Text
Language                                 : English
Default                                  : Yes
Forced                                   : No


















                                                                                                                                                                                                        

             [XunleiCun]_-47.Meters.Down.2017.720p.BluRay.x264.DTS-HDC[bt天堂 www.xunleicun.com][迅雷种子.torrent (91 KB, 下载次数: 21)
温馨提示:
本网站所有资源来自网络,仅供学习和交流,若侵犯了您的权益,请发邮件至 bbsxunlei1com@foxmail.com,立即清除相关链接。
1、在论坛里发表的文章仅代表作者本人的观点,与本网站立场无关。
2、论坛的所有内容都不保证其准确性,有效性,时间性。阅读本站内容因误导等因素而造成的损失本站不承担连带责任。
3、本站任何资源仅供学习参考,请在下载后24小时以内删除相关内容,否则后或自负。
4、若因线路及非本站所能控制范围的故障导致暂停服务期间造成的一切不便与损失,论坛不负任何责任。
5、注册会员通过任何手段和方法针对论坛进行破坏,我们有权对其行为作出处理。并保留进一步追究其责任的权利。
*滑动验证:

本版积分规则


Archiver|手机版|小黑屋|迅雷种子论坛 ( 皖ICP备17009963号-1|网站地图
本网站所有资源来自网络,仅供学习和交流,如无意中侵犯了您的权益,请发邮件至 bbsxunlei1com@foxmail.com,立即清除相关链接.

GMT+8, 2017-9-22 16:04 , Processed in 0.218801 second(s), 46 queries , Gzip On.

Powered by Discuz! X3.2

© 2001-2013 Comsenz Inc.

快速回复 返回顶部 返回列表