迅雷种子论坛

 找回密码
 立即注册(享受大片)

QQ登录

只需一步,快速开始

查看: 1902|回复: 1

愚行录[内封中字]Traces.of.Sin.2016.720p.BluRay.x264-WiKi 4.35GB

[复制链接] [提交至百度]

该用户从未签到

2771

主题

2778

帖子

9035

种币

超级版主

Rank: 8Rank: 8

积分
11919
发表于 6 天前 | 显示全部楼层 |阅读模式


译  名 愚行录
片  名 愚行録
年  代 2016
产  地 日本
类  别 剧情/犯罪/悬疑
语  言 日语
上映日期 2016-09-06(威尼斯电影节)/2017-02-18(日本)
片  长 120分钟
导  演 石川庆 Kei Ishikawa
主  演 妻夫木聪 Satoshi Tsumabuki
      满岛光 Hikari Mitsushima
      小出惠介 Keisuke Koide
      臼田麻美 Asami Usuda
      市川由衣 Yui Ichikawa
      松本若菜 Wakana Matsumoto
      中村伦也 Tomoya Nakamura
      真岛秀和 Hidekazu Mashima
      滨田麻里 Mari Hamada
      平田满 Mitsuru Hirata
      松本真里香 Marika Matsumoto


简  介


  精英上班族一家被杀害引起轰动,在犯人不明的状况下过去了一年,周刊记者田中(妻夫木聪)为报道此事开始追查真相,满岛光饰演田中的妹妹。影片描绘了人际关系中隐藏的羡慕、嫉妒和策略,是一部检验人性极限的群像推理作品。


获奖情况


  第73届威尼斯电影节  (2016)
  地平线单元奖 最佳影片(提名)



Video
ID                                       : 1
Format                                   : AVC
Format/Info                              : Advanced Video Codec
Format profile                           : HighL4.1
Format settings, CABAC                   : Yes
Format settings, ReFrames                : 12 frames
Codec ID                                 : V_MPEG4/ISO/AVC
Duration                                 : 2 h 0 min
Bit rate                                 : 4 548 kb/s
Width                                    : 1 280 pixels
Height                                   : 536 pixels
Display aspect ratio                     : 2.40:1
Frame rate mode                          : Constant
Frame rate                               : 23.976 (24000/1001) FPS
Color space                              : YUV
Chroma subsampling                       : 4:2:0
Bit depth                                : 8 bits
Scan type                                : Progressive
Bits/(Pixel*Frame)                       : 0.276
Stream size                              : 3.82 GiB (88%)
Writing library                          : x264 core 129 r2245+704+36 8e61944 tMod+MixAQ [8-bit@4:2:0 X86_64]
Encoding settings                        : cabac=1 / ref=12 / deblock=1:-3:-3 / analyse=0x3:0x133 / me=umh / subme=11 / psy=1 / fade_compensate=0.00 / psy_rd=1.05:0.10 / mixed_ref=1 / me_range=32 / chroma_me=1 / trellis=2 / 8x8dct=1 / cqm=0 / deadzone=21,11 / fast_pskip=0 / chroma_qp_offset=-3 / threads=18 / lookahead_threads=3 / sliced_threads=0 / nr=0 / decimate=0 / interlaced=0 / bluray_compat=0 / constrained_intra=0 / fgo=0 / bframes=10 / b_pyramid=2 / b_adapt=2 / b_bias=0 / direct=3 / weightb=1 / open_gop=0 / weightp=2 / keyint=250 / keyint_min=23 / scenecut=40 / intra_refresh=0 / rc=2pass / mbtree=0 / bitrate=4548 / ratetol=1.0 / qcomp=0.70 / qpmin=0 / qpmax=69 / qpstep=4 / cplxblur=20.0 / qblur=0.5 / ip_ratio=1.40 / pb_ratio=1.30 / aq=1 / aq-strength=0.90 / aq-sensitivity=10.00 / aq-ifactor=1.00 / aq-pfactor=1.00 / aq-bfactor=1.00 / aq2=0
Language                                 : Japanese
Default                                  : Yes
Forced                                   : No

Audio
ID                                       : 2
Format                                   : AC-3
Format/Info                              : Audio Coding 3
Format settings, Endianness              : Big
Codec ID                                 : A_AC3
Duration                                 : 2 h 0 min
Bit rate mode                            : Constant
Bit rate                                 : 640 kb/s
Channel(s)                               : 6 channels
Channel positions                        : Front: L C R, Side: L R, LFE
Sampling rate                            : 48.0 kHz
Frame rate                               : 31.250 FPS (1536 spf)
Bit depth                                : 16 bits
Compression mode                         : Lossy
Stream size                              : 551 MiB (12%)
Language                                 : Japanese
Service kind                             : Complete Main
Default                                  : Yes
Forced                                   : No

Text #1
ID                                       : 3
Format                                   : UTF-8
Codec ID                                 : S_TEXT/UTF8
Codec ID/Info                            : UTF-8 Plain Text
Duration                                 : 1 h 56 min
Bit rate                                 : 32 b/s
Count of elements                        : 1095
Stream size                              : 27.2 KiB (0%)
Title                                    : Simplified
Default                                  : Yes
Forced                                   : No

Text #2
ID                                       : 4
Format                                   : UTF-8
Codec ID                                 : S_TEXT/UTF8
Codec ID/Info                            : UTF-8 Plain Text
Duration                                 : 1 h 56 min
Bit rate                                 : 32 b/s
Count of elements                        : 1095
Stream size                              : 27.2 KiB (0%)
Title                                    : Traditional
Language                                 : Chinese
Default                                  : No
Forced                                   : No

Menu
00:00:00.000                             : en:00:00:00.000
00:09:07.255                             : en:00:09:07.255
00:15:44.151                             : en:00:15:44.151
00:32:01.002                             : en:00:32:01.002
00:41:21.979                             : en:00:41:21.979
00:44:58.070                             : en:00:44:58.070
00:53:33.710                             : en:00:53:33.710
00:56:06.029                             : en:00:56:06.029
01:06:27.316                             : en:01:06:27.316
01:15:20.057                             : en:01:15:20.057
01:24:27.812                             : en:01:24:27.812
01:35:58.085                             : en:01:35:58.085
01:41:45.307                             : en:01:41:45.307
01:48:05.103                             : en:01:48:05.103
01:51:37.524                             : en:01:51:37.524
01:56:35.989                             : en:01:56:35.989

















                                                                                                                                                                                                        

               [XunleiCun]_-Traces.of.Sin.2016.720p.BluRay.x264-WiKi[bt天堂 www.xunleicun.com][迅雷种子论坛].torrent (87.61 KB, 下载次数: 10)
温馨提示:
本网站所有资源来自网络,仅供学习和交流,若侵犯了您的权益,请发邮件至 bbsxunlei1com@foxmail.com,立即清除相关链接。
1、在论坛里发表的文章仅代表作者本人的观点,与本网站立场无关。
2、论坛的所有内容都不保证其准确性,有效性,时间性。阅读本站内容因误导等因素而造成的损失本站不承担连带责任。
3、本站任何资源仅供学习参考,请在下载后24小时以内删除相关内容,否则后或自负。
4、若因线路及非本站所能控制范围的故障导致暂停服务期间造成的一切不便与损失,论坛不负任何责任。
5、注册会员通过任何手段和方法针对论坛进行破坏,我们有权对其行为作出处理。并保留进一步追究其责任的权利。

签到天数: 276 天

[LV.8]公交司机I

0

主题

489

帖子

971

种币

资深司机

Rank: 6Rank: 6

积分
1513
发表于 5 天前 | 显示全部楼层
精英上班族一家被杀害引起轰动,在犯人不明的状况下过去了一年,
回复 支持 反对

使用道具 举报

*滑动验证:

本版积分规则


Archiver|手机版|小黑屋|迅雷种子论坛 ( 皖ICP备17009963号-1|网站地图
本网站所有资源来自网络,仅供学习和交流,如无意中侵犯了您的权益,请发邮件至 bbsxunlei1com@foxmail.com,立即清除相关链接.

GMT+8, 2017-9-21 19:57 , Processed in 0.235220 second(s), 45 queries , Gzip On.

Powered by Discuz! X3.2

© 2001-2013 Comsenz Inc.

快速回复 返回顶部 返回列表